#TITLE:Cha Cha;
#SUBTITLE:;
#ARTIST:Eugene;
#TITLETRANSLIT:Cha Cha;
#SUBTITLETRANSLIT:;
#ARTISTTRANSLIT:Eugene;
#CREDIT:;
#BANNER:Cha Cha-bn.png;
#BACKGROUND:Cha Cha-bg.png;
#LYRICSPATH:;
#CDTITLE:pm4cd.png;
#MUSIC:Cha Cha.mp3;
#OFFSET:0.040;
#SAMPLESTART:88.040;
#SAMPLELENGTH:20.000;
#SELECTABLE:YES;
#BPMS:0.000=120.010,23.875=60.010,24.000=240.011,24.500=120.010,127.875=60.010,128.000=240.011,128.500=120.010,264.125=60.010,264.250=240.011,264.500=120.010,283.125=60.010,283.250=240.010,283.500=120.010,384.500=60.010;
#STOPS:;
#BGCHANGES:;
// cache tags:
#FIRSTBEAT:4.250;
#LASTBEAT:386.375;
#SONGFILENAME:Songs/Music V.I.P ^_^/Cha Cha/Cha Cha.sm;
#HASMUSIC:1;
#HASBANNER:1;
#MUSICLENGTH:194.977;
// end cache tags

//---------------dance-single - ----------------
#NOTES:
     dance-single:
     :
     Hard:
     11:
     0.768,0.768,1.000,0.046,0.782,820.000,217.000,9.000,0.000,56.000:
0000
0000
0000
0000
,
0000
1000
0000
0100
0000
0011
0000
0000
0000
0001
0000
0010
0000
0101
0000
1000
,
0000
1000
0000
0100
0000
0011
0000
0000
0000
0001
0000
0010
0000
0101
0000
1000
,
0000
1000
0000
0100
0000
0011
0000
0000
0000
0001
0000
0010
0000
0101
0000
1000
,
0000
1000
0000
0100
0000
0011
0000
0000
0000
0001
0000
0010
0000
0101
0000
1000
,
0000
0011
0000
0000
0000
0010
0000
0000
0000
0010
0000
0000
0000
0010
0000
0000
,
0000
1000
0000
0100
0000
0010
0000
0100
0000
0001
0000
0010
0000
1000
0000
0010
,
0000
0100
0000
0001
0000
0010
0000
0100
0000
1000
0000
0010
0000
0100
0000
0001
,
0000
0010
0000
0100
0000
1000
0000
0010
0000
0100
0000
0001
0000
0010
0000
1000
,
0000
0010
0000
0100
0000
0001
0000
0010
0000
1000
0000
0010
0000
0100
0000
0001
,
0000
0010
0000
0100
0000
1000
0000
0010
0000
0100
0000
0001
0000
0010
0000
0100
,
0000
1000
0000
0010
0000
0100
0000
0001
0000
0010
0000
1000
0000
0100
0000
0001
,
0000
0010
0000
0100
0000
1000
0000
0010
0000
0100
0000
0001
0000
0010
0000
1000
,
0000
0001
0000
0010
0000
1100
0000
0010
0000
0100
0000
0100
0000
1000
0100
0010
,
0001
0110
0000
1001
0000
0110
0000
0110
0000
1001
0000
0011
0000
0010
0000
1000
,
0000
0110
0000
1001
0000
0110
0000
0110
0000
1001
0000
1010
0000
0100
0000
0011
,
0000
1000
0000
0100
0000
0010
0000
0001
0000
0010
0000
0100
0000
1000
0000
0000
,
0000
0010
0000
0100
0000
0010
0000
0100
0000
1000
0000
0101
0000
1010
0000
0000
,
0000
0110
0000
1001
0000
0110
0000
0110
0000
1001
0000
0011
0000
0100
0000
1010
,
0000
0110
0000
1001
0000
0110
0000
0110
0000
1001
0000
0101
0000
0010
0000
1100
,
0000
0001
0000
0100
0000
0010
0000
1000
0000
0100
0000
0010
0000
0001
0000
0010
,
0000
0100
0000
0010
0000
0100
0000
1000
0100
0010
0000
1100
0000
0011
0000
0000
,
0000
0001
0010
0100
0000
0010
0100
1000
0000
1000
0100
0010
0000
0101
0000
0000
,
0000
1000
0100
0010
0000
0100
0010
0001
0000
0001
0010
0100
0000
0011
0000
0000
,
0000
1000
0000
0010
0000
0101
0000
0100
0000
0010
0000
0100
0000
1100
0000
0010
,
0000
0100
0000
1000
0000
0101
0000
0010
0000
1000
0000
0100
0000
0101
0010
0001
,
0000
1000
0001
0010
0100
1000
0001
1000
0100
0010
0001
1000
0100
0011
0000
0001
,
0000
1000
0100
0010
0001
1000
0001
0010
0100
1000
0010
0100
0010
1100
0000
0001
,
0000
0100
0000
1010
0000
0101
0000
0010
0000
1100
0000
0100
0000
1001
0000
1000
,
0000
0011
0000
0010
0000
0010
0000
0110
0000
0101
0000
1010
0000
0100
0000
0001
,
0010
0100
1000
0000
0000
0100
0000
0000
0100
0000
0000
0100
0000
0011
0000
0100
,
0000
1000
0000
0000
0000
1000
0000
0000
0000
1000
0000
0100
0000
1000
0000
0000
,
0000
0001
0010
0100
0010
0100
1000
0100
,
0010
0001
0010
0100
1000
0100
0001
0010
,
0100
0010
0100
1000
0100
0010
0001
0010
,
0100
0010
0001
0010
0100
1000
0100
0010
,
0001
1000
0010
0100
0010
0001
0010
0100
,
1000
0100
0010
0001
0100
0010
1000
0100
,
0001
0100
1000
0010
1000
0010
0100
0001
,
0010
0000
0100
0000
0001
0000
0100
0000
0001
0000
1000
0000
0100
0000
1000
0100
,
0010
0001
0110
0000
1001
0000
0110
0000
0110
0000
1001
0000
0110
0000
0100
0000
,
1000
0110
1001
0110
0110
1001
0110
0100
,
1000
0001
0010
0100
1000
0010
0100
0001
,
0000
0000
0010
0000
0100
0000
0010
0000
1000
0100
0010
0000
0101
0000
0101
0000
,
0000
0110
1001
0110
0110
1001
0110
0100
,
1000
0110
1001
0110
0110
1001
0110
0100
,
1000
0001
0100
1000
0010
0001
0100
1000
,
0000
0000
0100
0000
0010
0000
0001
0000
0010
0100
1000
0000
0101
0000
0101
0000
,
0000
0000
1000
0100
0010
0000
0100
0010
0001
0000
0010
0100
1000
0000
0011
0000
,
0000
0000
0001
0010
0100
0000
1000
0100
0010
0000
0001
0010
0100
0000
1010
0000
,
0000
0100
0010
1010
0100
1010
0001
0110
,
0100
0000
0001
0000
0010
0000
0101
0000
0010
0000
1000
0000
0100
0000
1010
0001
,
0010
0000
0100
0001
0010
1000
0001
1000
0010
0100
0001
1000
0010
0100
1001
0000
,
0010
0000
0010
1000
0100
0001
0010
1000
0001
0100
1000
0010
0100
0001
0110
0000
,
1000
0001
1010
0100
1010
0100
1010
0010
,
0101
0000
0010
0000
0010
0000
0110
0000
1001
0000
0110
0000
0100
0000
1000
0100
,
0010
0001
2100
0000
0001
0000
0011
0000
0100
0000
0011
0000
0100
0000
0011
0000
,
0010
0101
0010
0110
0001
0110
0101
0011
,
0101
3021
0100
1001
0100
0101
0100
1001
,
0100
0101
1000
1100
0001
1100
0100
1001
,
0100
1231
0010
1001
0010
1010
0010
0011
,
0010
1000
0010
0011
0010
1001
0010
1001
,
0010
1302
0010
1100
0100
0010
1100
0010
,
0100
0000
0010
0100
1000
0100
0010
0100
1000
0100
0010
0000
0100
0000
1010
0000
,
0100
0000
1003
0000
0000
0000
1000
0000
0000
1000
0000
0000
0100
0000
0010
0000
,
0001
0110
0000
0100
0000
0100
0000
0100
,
0000
0000
1000
0010
0100
0000
0010
0000
0001
0000
0100
1000
0010
0000
0011
0000
,
0000
0000
0100
0010
1000
0000
0011
0100
0011
0100
0001
0000
1000
0000
0100
0010
,
0001
0000
0101
0000
0010
0000
1100
0001
1100
0001
0000
0000
0100
0000
0001
0000
,
0110
0000
1000
0000
0100
0010
1000
0000
0011
0100
0011
0100
0001
0010
0100
1000
,
0100
0001
0010
0000
0001
0100
0001
0000
1010
0001
1010
0001
0000
0000
0110
0000
,
0000
0010
0000
0010
0000
0010
0100
0010
,
0000
0110
1001
0110
0110
1001
0110
0100
,
1000
0110
1001
0110
0110
1001
0110
0100
,
1000
0001
0010
0100
1000
0010
0100
0001
,
1000
0000
0010
0000
0100
0000
0010
0000
1000
0100
0010
0000
0101
0000
0101
0000
,
0000
0110
1001
0110
0110
1001
0110
0100
,
1000
0110
1001
0110
0110
1001
0110
0100
,
1000
0001
0100
1000
0010
0001
0100
1000
,
0010
0000
0100
0000
0010
0000
0001
0000
0010
0100
1000
0000
0101
0000
0101
0000
,
0000
0000
1000
0100
0010
0000
0100
0010
0001
0000
0010
0100
1000
0000
0011
0000
,
0000
0000
0001
0010
0100
0000
1000
0100
0010
0000
0001
0010
0100
0000
1010
0000
,
0000
0100
0010
1010
0100
1010
0001
0110
,
0100
0000
0001
0000
0010
0000
0101
0000
0010
0000
1000
0000
0100
0000
1010
0001
,
0010
0000
0100
0001
0010
1000
0001
1000
0010
0100
0001
1000
0010
0100
0011
0000
,
1000
0000
0010
1000
0100
0001
0010
1000
0001
0100
1000
0010
0100
0001
0110
0000
,
1000
0001
1010
0100
1010
0100
1010
0010
,
0101
0000
0010
0000
0010
0000
0110
0000
1001
0000
0110
0000
0100
0000
1000
0100
,
0010
0001
2100
0000
0001
0000
0011
0000
0100
0000
0011
0000
0100
0000
0011
0000
,
0010
0101
0010
0110
0001
0110
0101
0011
,
0101
3021
0100
1001
0100
0101
0100
1001
,
0100
0101
1000
1100
0001
1100
0100
1001
,
0100
1231
0010
1001
0010
1010
0010
0011
,
0010
1000
0010
0011
0010
1001
0010
1001
,
0010
1302
0010
1100
0100
0010
1100
0010
,
0100
0000
0010
0100
1000
0100
0010
0100
1000
0100
0010
0000
0100
0000
1010
0000
,
0100
0000
0000
0000
2003
0000
0000
0000
0000
0000
0000
0000
0000
0000
0000
0000
3100
0000
0010
0001
0000
0000
0000
0000
0000
0000
0000
0000
0000
0000
0000
0000
;

//---------------dance-single - ----------------
#NOTES:
     dance-single:
     :
     Medium:
     1:
     0.000,0.000,0.000,0.000,0.000,0.000,0.000,0.000,0.000,0.000:
0000
0000
0000
0000
;

//---------------dance-single - ----------------
#NOTES:
     dance-single:
     :
     Easy:
     1:
     0.000,0.000,0.000,0.000,0.000,0.000,0.000,0.000,0.000,0.000:
0000
0000
0000
0000
;
